Van Helsing [2004] FullHD 1080p [Ing-Lat]

Van Helsing [2004]  FullHD 1080p  [Ing-Lat]

Titulo original: Van Helsing
Ano: 2004
Duracion: 128 min.
Pais: Estados Unidos Estados Unidos
Director: Stephen Sommers
Guion: Stephen Sommers
Musica: Alan Silvestri
Fotografia: Allen Daviau
Reparto: Hugh Jackman, Kate Beckinsale, Richard Roxburgh, David Wenham, Shuler Hensley, Elena Anaya, Will Kemp, Kevin J. OConnor, Silvia Colloca, Alun Armstrong, Josie Maran, Tom Fisher, Samuel West, Dana Moravkova
Productora:Universal Pictures
Genero: Terror. Fantastico. Accion. Aventuras | Monstruos. Hombres lobo. Vampiros. Siglo XIX. Steampunk
Grupos: Dracula | Frankenstein | Van Helsing Novedad
Sinopsis: Siglo XIX. En los Carpatos esta la misteriosa y mitica region de Transilvania, donde habita el Mal que se hace presente cuando el sol se pone, y donde toman forma los monstruos que protagonizan las pesadillas de los hombres. Enviado por el Vaticano, Van Helsing inicia alli su lucha contra el conde Dracula y las criaturas bajo su control.

http://www.imdb.com/title/tt0338526

Trailer
http://youtu.be/bX1x9Ktj2B4

General
Complete name : Van Helsing (2004) 1080p.mkv
Format : Matroska
Format version : Version 4 / Version 2
File size : 11.6 GiB
Duration : 2 h 11 min
Overall bit rate : 12.6 Mb/s
Movie name : WWW.CLUB-HD.COM
Encoded date : UTC 2017-08-11 17:06:47
Writing application : mkvmerge v9.9.0 (Pick Up) 64bit
Writing library : libebml v1.3.4 + libmatroska v1.4.5
Video
ID : 1
Format : AVC
Format/Info : Advanced Video Codec
Format profile : [email protected]
Format settings, CABAC : Yes
Format settings, ReFrames : 4 frames
Codec ID : V_MPEG4/ISO/AVC
Duration : 2 h 11 min
Bit rate : 10.5 Mb/s
Width : 1 920 pixels
Height : 1 040 pixels
Display aspect ratio : 1.85:1
Frame rate mode : Constant
Frame rate : 23.976 (24000/1001) FPS
Color space : YUV
Chroma subsampling : 4:2:0
Bit depth : 8 bits
Scan type : Progressive
Bits/(Pixel*Frame) : 0.218
Stream size : 9.61 GiB (83%)
Writing library : x264 core 138 r2358 9e941d1
Language : English
Default : Yes
Forced : No
Audio #1
ID : 2
Format : AC-3
Format/Info : Audio Coding 3
Mode extension : CM (complete main)
Format settings, Endianness : Big
Codec ID : A_AC3
Duration : 2 h 11 min
Bit rate mode : Constant
Bit rate : 640 kb/s
Channel(s) : 6 channels
Channel positions : Front: L C R, Side: L R, LFE
Sampling rate : 48.0 kHz
Frame rate : 31.250 FPS (1536 spf)
Bit depth : 16 bits
Compression mode : Lossy
Stream size : 603 MiB (5%)
Language : Spanish
Default : Yes
Forced : No
Audio #2
ID : 3
Format : DTS
Format/Info : Digital Theater Systems
Mode : 16
Format settings, Endianness : Big
Codec ID : A_DTS
Duration : 2 h 11 min
Bit rate mode : Constant
Bit rate : 1 509 kb/s
Channel(s) : 6 channels
Channel positions : Front: L C R, Side: L R, LFE
Sampling rate : 48.0 kHz
Frame rate : 93.750 FPS (512 spf)
Bit depth : 24 bits
Compression mode : Lossy
Stream size : 1.39 GiB (12%)
Language : English
Default : No
Forced : No
Text #1
ID : 4
Format : UTF-8
Codec ID : S_TEXT/UTF8
Codec ID/Info : UTF-8 Plain Text
Duration : 2 h 1 min
Bit rate : 33 b/s
Count of elements : 936
Stream size : 30.1 KiB (0%)
Language : Spanish
Default : No
Forced : No
Text #2
ID : 5
Format : UTF-8
Codec ID : S_TEXT/UTF8
Codec ID/Info : UTF-8 Plain Text
Duration : 2 h 1 min
Bit rate : 0 b/s
Count of elements : 10
Stream size : 187 Bytes (0%)
Title : Latin Forz
Default : Yes
Forced : No




Uploadgig, Uploaded, Rapidgator, Katfile

**Todos los Enlaces Estan en Lupaste:

http://lupaste.com/?v=25128


Deja un comentario

Tu dirección de correo electrónico no será publicada. Los campos obligatorios están marcados con *